South.Park.Post.Covid.2021.고화질.WEB.h264-RUMOUR > 영화
웹하드 가입에서 다운로드까지 어렵지 않아요~
웹하드 가입에서 다운로드까지 어렵지 않아요~
 [구글검색] 구글에서 바다보아 검색 - 구글에서 토렌트를 검색하실 때에 검색어 뒤에 바다보아를 꼭 붙여서 검색하세요.     바다보아에서 광고중인 웹에 문제가 있다면 메뉴에 나와 있는 운영자 이메일로 연락 주십시오.     사용자님의 다운로드가 완료될 때까지 저희가 함께하겠습니다. 편안하고 즐거운 시간 되십시오.

시작페이지
파일비트

[고화질] South.Park.Post.Covid.2021.고화질.WEB.h264-RUMOUR Torrent
  • 줄거리:    Screens... (click to enlarge):Screenshots: presents South.Park.Post.Covid.2021.720p.WEB.h264-RUMOUR date......: 25/11/2021 size......: 979 MiB runtime...: 59 min 27 s resolution: 1280x720 bitrate...: 1 661 kb/s audio.....: (English) E-AC-3 6ch 640 kb/s subs......: English url.......: https://www.imdb.com/title/tt15178196 Rumour has it this is a Quality release!MediainfoQuote:VideoID : 1Format : AVCFormat/Info : Advanced Video CodecFormat profile : [email protected]Format settings : CABAC / 4 Ref FramesFormat settings, CABAC : YesFormat settings, Reference frames : 4 framesCodec ID : V_MPEG4/ISO/AVCDuration : 59 min 27 sBit rate mode : ConstantBit rate : 1 661 kb/sNominal bit rate : 4 000 kb/sWidth : 1 280 pixelsHeight : 720 pixelsDisplay aspect ratio : 16:9Frame rate mode : ConstantFrame rate : 24.000 FPSColor space : YUVChroma subsampling : 4:2:0Bit depth : 8 bitsScan type : ProgressiveBits/(Pixel*Frame) : 0.075Stream size : 706 MiB (72%)Language : EnglishDefault : YesForced : NoColor range : LimitedColor primaries : BT.709Transfer characteristics : BT.709Matrix coefficients : BT.709AudioID : 2Format : E-AC-3Format/Info : Enhanced AC-3Commercial name : Dolby Digital PlusCodec ID : A_EAC3Duration : 59 min 27 sBit rate mode : ConstantBit rate : 640 kb/sChannel(s) : 6 channelsChannel layout : L R C LFE Ls RsSampling rate : 48.0 kHzFrame rate : 31.250 FPS (1536 SPF)Compression mode : LossyStream size : 272 MiB (28%)Language : EnglishService kind : Complete MainDefault : YesForced : NoTextID : 3Format : UTF-8Codec ID : S_TEXT/UTF8Codec ID/Info : UTF-8 Plain TextDuration : 59 min 21 sBit rate : 101 b/sCount of elements : 1337Stream size : 44.3 KiB (0%)Title : EnglishLanguage : EnglishDefault : NoForced : No South.Park.Post.Covid.2021.720p.WEB.h264-RUMOUR…
  • 인기 연관 검색어 구글 검색:    
  • 관련 자료(가나다순):    

    24 Hours at the South Street Diner

        

    저니 투 더 사우스 퍼시픽 Journey To The South Pacific 2013 초고화질 BluRay x2…

  • 관련 자료(시간순):    
    4K/다큐 남태평양 여행 Journey to the South Pacific 2013 2160p UHD BluRa…
        
    24 Hours at the South Street Diner
  • 같은 시각 자료:    Batman the Killing Joke (2016) 고화질 BluRay x264 -[MoviesFD7]    South.Park.Post.Covid.2021.초고화질.WEBRip.x264
  직접 다운로드      무료 다운로드

South.Park.Post.Covid.2021.고화질.WEB.h264-RUMOUR > 영화       즐겨찾기 등록

South.Park.Post.Covid.2021.고화질.WEB.h264-RUMOUR
South.Park.Post.Covid.2021.고화질.WEB.h264-RUMOUR

Screens... (click to enlarge):


Screenshots:

presents
South.Park.Post.Covid.2021.720p.WEB.h264-RUMOUR

date......: 25/11/2021
size......: 979 MiB
runtime...: 59 min 27 s
resolution: 1280x720
bitrate...: 1 661 kb/s
audio.....: (English) E-AC-3 6ch 640 kb/s
subs......: English
url.......: https://www.imdb.com/title/tt15178196

Rumour has it this is a Quality release!

Mediainfo

Quote:

Video
ID : 1
Format : AVC
Format/Info : Advanced Video Codec
Format profile : [email protected]
Format settings : CABAC / 4 Ref Frames
Format settings, CABAC : Yes
Format settings, Reference frames : 4 frames
Codec ID : V_MPEG4/ISO/AVC
Duration : 59 min 27 s
Bit rate mode : Constant
Bit rate : 1 661 kb/s
Nominal bit rate : 4 000 kb/s
Width : 1 280 pixels
Height : 720 pixels
Display aspect ratio : 16:9
Frame rate mode : Constant
Frame rate : 24.000 FPS
Color space : YUV
Chroma subsampling : 4:2:0
Bit depth : 8 bits
Scan type : Progressive
Bits/(Pixel*Frame) : 0.075
Stream size : 706 MiB (72%)
Language : English
Default : Yes
Forced : No
Color range : Limited
Color primaries : BT.709
Transfer characteristics : BT.709
Matrix coefficients : BT.709

Audio
ID : 2
Format : E-AC-3
Format/Info : Enhanced AC-3
Commercial name : Dolby Digital Plus
Codec ID : A_EAC3
Duration : 59 min 27 s
Bit rate mode : Constant
Bit rate : 640 kb/s
Channel(s) : 6 channels
Channel layout : L R C LFE Ls Rs
Sampling rate : 48.0 kHz
Frame rate : 31.250 FPS (1536 SPF)
Compression mode : Lossy
Stream size : 272 MiB (28%)
Language : English
Service kind : Complete Main
Default : Yes
Forced : No

Text
ID : 3
Format : UTF-8
Codec ID : S_TEXT/UTF8
Codec ID/Info : UTF-8 Plain Text
Duration : 59 min 21 s
Bit rate : 101 b/s
Count of elements : 1337
Stream size : 44.3 KiB (0%)
Title : English
Language : English
Default : No
Forced : No

South.Park.Post.Covid.2021.720p.WEB.h264-RUMOUR


<< 이 게시판에서 관련된 자료 목록 >>
웹하드 가입에서 다운로드까지 어렵지 않아요~
웹하드 가입에서 다운로드까지 어렵지 않아요~

IMFORMATION STORE
상단으로 가운데로 하단으로