Copshop.Scontro.A.Fuoco.2021.iTA-ENG.WEBDL.2160p.HDR.x265-CYBER.m... > 영화
웹하드 가입에서 다운로드까지 어렵지 않아요~
웹하드 가입에서 다운로드까지 어렵지 않아요~
 [구글검색] 구글에서 바다보아 검색 - 구글에서 토렌트를 검색하실 때에 검색어 뒤에 바다보아를 꼭 붙여서 검색하세요.     바다보아에서 광고중인 웹에 문제가 있다면 메뉴에 나와 있는 운영자 이메일로 연락 주십시오.     사용자님의 다운로드가 완료될 때까지 저희가 함께하겠습니다. 편안하고 즐거운 시간 되십시오.

시작페이지
파일비트

[4K UHD] Copshop.Scontro.A.Fuoco.2021.iTA-ENG.WEBDL.2160p.HDR.x265-CYBER.m... Torrent
  • 줄거리:    DATI - TRAMA USA, 2021 Genere: Thriller durata 109 Regia di Joe Carnahan Con Frank Grillo, Gerard Butler, Alexis Louder, Toby Huss, Ryan ONan, Tait Fletcher, Keith Jardine, Kaiwi Lyman, Yvette Fazio-Delaney.. La stazione di polizia di una piccola città diventa lo sfortunato terreno di battaglia tra un assassino professionista, una poliziotta novellina e un truffatore doppiogiochista che cerca rifugio dietro le sbarre. IMMAGINI DATI - TRAMA USA, 2021 Genere: Thriller durata 109 Regia di Joe Carnahan Con Frank Grillo, Gerard Butler, Alexis Louder, Toby Huss, Ryan ONan, Tait Fletcher, Keith Jardine, Kaiwi Lyman, Yvette Fazio-Delaney.. La stazione di polizia di una piccola città diventa lo sfortunato terreno di battaglia tra un assassino professionista, una poliziotta novellina e un truffatore doppiogiochista che cerca rifugio dietro le sbarre. IMMAGINI REPORT General Unique ID : 59955193513025822961349073645720166383 (0x2D1AF343A36002EFF4E09C3BB2BDDFEF) Complete name : G:\+WEBDL\Copshop.Scontro.A.Fuoco.2021.iTA-ENG.WEBDL.2160p.HDR.x265-CYBER.mkv Format : Matroska Format version : Version 4 File size : 12.5 GiB Duration : 1 h 47 min Overall bit rate : 16.6 Mb/s Encoded date : UTC 2021-11-24 18:24:26 Writing application : mkvmerge v63.0.0 (Everything) 64-bit Writing library : libebml v1.4.2 + libmatroska v1.6.4 Video ID : 1 Format : HEVC Format/Info : High Efficiency Video Coding Format profile : Main [email protected]@Main HDR format : SMPTE ST 2094 App 4, Version 1, HDR10+ Profile B compatible Codec ID : V_MPEGH/ISO/HEVC Duration : 1 h 47 min Bit rate : 14.9 Mb/s Width : 3 840 pixels Height : 1 600 pixels Display aspect ratio : 2.40:1 Frame rate mode : Constant Frame rate : 23.976 (24000/1001) FPS Color space : YUV Chroma subsampling : 4:2:0 Bit depth : 10 bits Bits/(Pixel*Frame) : 0.101 Stream size : 11.2 GiB (90%) Default : Yes Forced : No Color range : Limited Color primaries : BT.2020 Transfer characteristics : PQ Matrix coefficients : BT.2020 non-constant Mastering display color primaries : BT.2020 Mastering display luminance : min: 0.0050 cd/m2, max: 1000 cd/m2 Maximum Content Light Level : 999 cd/m2 Maximum Frame-Average Light Level : 213 cd/m2 Audio #1 ID : 2 Format : AC-3 Format/Info : Audio Coding 3 Commercial name : Dolby Digital Codec ID : A_AC3 Duration : 1 h 47 min Bit rate mode : Constant Bit rate : 384 kb/s Channel(s) : 6 channels Channel layout : L R C LFE Ls Rs Sampling rate : 48.0 kHz Frame rate : 31.250 FPS (1536 SPF) Compression mode : Lossy Stream size : 296 MiB (2%) Title : AC3 Ita 5.1 Ch Language : Italian Service kind : Complete Main Default : Yes Forced : Yes Audio #2 ID : 3 Format : E-AC-3 Format/Info : Enhanced AC-3 Commercial name : Dolby Digital Plus Codec ID : A_EAC3 Duration : 1 h 47 min Bit rate mode : Constant Bit rate : 640 kb/s Channel(s) : 6 channels Channel layout : L R C LFE Ls Rs Sampling rate : 48.0 kHz Frame rate : 31.250 FPS (1536 SPF) Compression mode : Lossy Stream size : 493 MiB (4%) Title : E-AC3 ENG Language : English Service kind : Complete Main Default : No Forced : No Audio #3 ID : 4 Format : AC-3 Format/Info : Audio Coding 3 Commercial name : Dolby Digital Codec ID : A_AC3 Duration : 1 h 47 min Bit rate mode : Constant Bit rate : 640 kb/s Channel(s) : 6 channels Channel layout : L R C LFE Ls Rs Sampling rate : 48.0 kHz Frame rate : 31.250 FPS (1536 SPF) Compression mode : Lossy Stream size : 493 MiB (4%) Title : AC3 Eng Language : English Service kind : Complete Main Default : No Forced : No Text #1 ID : 5 Format : UTF-8 Codec ID : S_TEXT/UTF8 Codec ID/Info : UTF-8 Plain Text Duration : 1 h 39 min Bit rate : 1 b/s Count of elements : 17 Stream size : 832 Bytes (0%) Title : FORCED Ita Language : Italian Default : No Forced : Yes Text #2 ID : 6 Format : UTF-8 Codec ID : S_TEXT/UTF8 Codec ID/Info : UTF-8 Plain Text Duration : 1 h 46 min Bit rate : 71 b/s Count of elements : 2178 Stream size : 55.5 KiB (0%) Title : Subs eng N.U. Language : English Default : No Forced : No Text #3 ID : 7 Format : UTF-8 Codec ID : S_TEXT/UTF8 Codec ID/Info : UTF-8 Plain Text Duration : 1 h 41 min Bit rate : 58 b/s Count of elements : 1651 Stream size : 43.4 KiB (0%) Title : Subs Eng regular Language : English Default : No Forced : No Menu 00:00:00.000 : en:Chapter 01 00:08:23.128 : en:Chapter 02 00:19:18.366 : en:Chapter 03 00:27:46.166 : en:Chapter 04 00:37:11.648 : en:Chapter 05 00:46:05.557 : en:Chapter 06 00:54:49.539 : en:Chapter 07 01:05:42.400 : en:Chapter 08 01:13:58.730 : en:Chapter 09 01:26:08.001 : en:Chapter 10 01:43:03.600 : en:Chapter 11 GOOD DOWNLOAD Copshop.Scontro.A.Fuoco.2021.iTA-ENG.WEBDL.2160p.HDR.x265-CYBER.m...…
  • 인기 연관 검색어 구글 검색:    
  • 관련 자료(가나다순):    

    Copshop 2021 고화질 AMZN WEBRip x264 AAC 800MB - ShortRips

        

    캅샵: 미친놈들의 전쟁 4k Copshop 2021 초고화질 Bluray DTS-HD MA 5 1 X264-EVO

  • 관련 자료(시간순):    
    Copshop 2021 WEBRip x264-ION10
        
    Copshop 2021 초고화질 BluRay x265
  • 같은 시각 자료:    The.Fight.Before.Christmas.2021.고화질.WEBRip.800MB.x264-GalaxyRG    The.Mysterious.Mr.Wizdom.2021.고화질.AMZN.WEBRip.800MB.x264-GalaxyR...
  직접 다운로드      무료 다운로드

Copshop.Scontro.A.Fuoco.2021.iTA-ENG.WEBDL.2160p.HDR.x265-CYBER.m... > 영화       즐겨찾기 등록

Copshop.Scontro.A.Fuoco.2021.iTA-ENG.WEBDL.2160p.HDR.x265-CYBER.m...
Copshop.Scontro.A.Fuoco.2021.iTA-ENG.WEBDL.2160p.HDR.x265-CYBER.m...
Gacnwy.jpg

DATI - TRAMA

USA, 2021
Genere: Thriller
durata 109
Regia di Joe Carnahan
Con Frank Grillo, Gerard Butler, Alexis Louder, Toby Huss, Ryan ONan, Tait Fletcher, Keith Jardine, Kaiwi Lyman, Yvette Fazio-Delaney..


La stazione di polizia di una piccola città diventa lo sfortunato terreno di battaglia tra un assassino professionista, una poliziotta novellina e un truffatore doppiogiochista che cerca rifugio dietro le sbarre.


IMMAGINI



Gacnwy.jpg

DATI - TRAMA

USA, 2021
Genere: Thriller
durata 109
Regia di Joe Carnahan
Con Frank Grillo, Gerard Butler, Alexis Louder, Toby Huss, Ryan ONan, Tait Fletcher, Keith Jardine, Kaiwi Lyman, Yvette Fazio-Delaney..


La stazione di polizia di una piccola città diventa lo sfortunato terreno di battaglia tra un assassino professionista, una poliziotta novellina e un truffatore doppiogiochista che cerca rifugio dietro le sbarre.


IMMAGINI





REPORT

General
Unique ID : 59955193513025822961349073645720166383 (0x2D1AF343A36002EFF4E09C3BB2BDDFEF)
Complete name : G:\+WEBDL\Copshop.Scontro.A.Fuoco.2021.iTA-ENG.WEBDL.2160p.HDR.x265-CYBER.mkv
Format : Matroska
Format version : Version 4
File size : 12.5 GiB
Duration : 1 h 47 min
Overall bit rate : 16.6 Mb/s
Encoded date : UTC 2021-11-24 18:24:26
Writing application : mkvmerge v63.0.0 (Everything) 64-bit
Writing library : libebml v1.4.2 + libmatroska v1.6.4

Video
ID : 1
Format : HEVC
Format/Info : High Efficiency Video Coding
Format profile : Main [email protected]@Main
HDR format : SMPTE ST 2094 App 4, Version 1, HDR10+ Profile B compatible
Codec ID : V_MPEGH/ISO/HEVC
Duration : 1 h 47 min
Bit rate : 14.9 Mb/s
Width : 3 840 pixels
Height : 1 600 pixels
Display aspect ratio : 2.40:1
Frame rate mode : Constant
Frame rate : 23.976 (24000/1001) FPS
Color space : YUV
Chroma subsampling : 4:2:0
Bit depth : 10 bits
Bits/(Pixel*Frame) : 0.101
Stream size : 11.2 GiB (90%)
Default : Yes
Forced : No
Color range : Limited
Color primaries : BT.2020
Transfer characteristics : PQ
Matrix coefficients : BT.2020 non-constant
Mastering display color primaries : BT.2020
Mastering display luminance : min: 0.0050 cd/m2, max: 1000 cd/m2
Maximum Content Light Level : 999 cd/m2
Maximum Frame-Average Light Level : 213 cd/m2

Audio #1
ID : 2
Format : AC-3
Format/Info : Audio Coding 3
Commercial name : Dolby Digital
Codec ID : A_AC3
Duration : 1 h 47 min
Bit rate mode : Constant
Bit rate : 384 kb/s
Channel(s) : 6 channels
Channel layout : L R C LFE Ls Rs
Sampling rate : 48.0 kHz
Frame rate : 31.250 FPS (1536 SPF)
Compression mode : Lossy
Stream size : 296 MiB (2%)
Title : AC3 Ita 5.1 Ch
Language : Italian
Service kind : Complete Main
Default : Yes
Forced : Yes

Audio #2
ID : 3
Format : E-AC-3
Format/Info : Enhanced AC-3
Commercial name : Dolby Digital Plus
Codec ID : A_EAC3
Duration : 1 h 47 min
Bit rate mode : Constant
Bit rate : 640 kb/s
Channel(s) : 6 channels
Channel layout : L R C LFE Ls Rs
Sampling rate : 48.0 kHz
Frame rate : 31.250 FPS (1536 SPF)
Compression mode : Lossy
Stream size : 493 MiB (4%)
Title : E-AC3 ENG
Language : English
Service kind : Complete Main
Default : No
Forced : No

Audio #3
ID : 4
Format : AC-3
Format/Info : Audio Coding 3
Commercial name : Dolby Digital
Codec ID : A_AC3
Duration : 1 h 47 min
Bit rate mode : Constant
Bit rate : 640 kb/s
Channel(s) : 6 channels
Channel layout : L R C LFE Ls Rs
Sampling rate : 48.0 kHz
Frame rate : 31.250 FPS (1536 SPF)
Compression mode : Lossy
Stream size : 493 MiB (4%)
Title : AC3 Eng
Language : English
Service kind : Complete Main
Default : No
Forced : No

Text #1
ID : 5
Format : UTF-8
Codec ID : S_TEXT/UTF8
Codec ID/Info : UTF-8 Plain Text
Duration : 1 h 39 min
Bit rate : 1 b/s
Count of elements : 17
Stream size : 832 Bytes (0%)
Title : FORCED Ita
Language : Italian
Default : No
Forced : Yes

Text #2
ID : 6
Format : UTF-8
Codec ID : S_TEXT/UTF8
Codec ID/Info : UTF-8 Plain Text
Duration : 1 h 46 min
Bit rate : 71 b/s
Count of elements : 2178
Stream size : 55.5 KiB (0%)
Title : Subs eng N.U.
Language : English
Default : No
Forced : No

Text #3
ID : 7
Format : UTF-8
Codec ID : S_TEXT/UTF8
Codec ID/Info : UTF-8 Plain Text
Duration : 1 h 41 min
Bit rate : 58 b/s
Count of elements : 1651
Stream size : 43.4 KiB (0%)
Title : Subs Eng regular
Language : English
Default : No
Forced : No

Menu
00:00:00.000 : en:Chapter 01
00:08:23.128 : en:Chapter 02
00:19:18.366 : en:Chapter 03
00:27:46.166 : en:Chapter 04
00:37:11.648 : en:Chapter 05
00:46:05.557 : en:Chapter 06
00:54:49.539 : en:Chapter 07
01:05:42.400 : en:Chapter 08
01:13:58.730 : en:Chapter 09
01:26:08.001 : en:Chapter 10
01:43:03.600 : en:Chapter 11

GOOD DOWNLOAD

Copshop.Scontro.A.Fuoco.2021.iTA-ENG.WEBDL.2160p.HDR.x265-CYBER.m...


<< 이 게시판에서 관련된 자료 목록 >>
웹하드 가입에서 다운로드까지 어렵지 않아요~
웹하드 가입에서 다운로드까지 어렵지 않아요~

IMFORMATION STORE
상단으로 가운데로 하단으로