Star.Trek.Discovery.S04E02.초고화질.WEB.H264-CAKES > 외국티비
웹하드 가입에서 다운로드까지 어렵지 않아요~
웹하드 가입에서 다운로드까지 어렵지 않아요~
 [구글검색] 구글에서 바다보아 검색 - 구글에서 토렌트를 검색하실 때에 검색어 뒤에 바다보아를 꼭 붙여서 검색하세요.     바다보아에서 광고중인 웹에 문제가 있다면 메뉴에 나와 있는 운영자 이메일로 연락 주십시오.     사용자님의 다운로드가 완료될 때까지 저희가 함께하겠습니다. 편안하고 즐거운 시간 되십시오.

시작페이지
파일몽

[초고화질] Star.Trek.Discovery.S04E02.초고화질.WEB.H264-CAKES Torrent
  • 파일설명:     Screens... (click to enlarge): Star.Trek.Discovery.S04E02.1080p.WEB.H264-CAKESInfolink -> https://www.imdb.com/title/tt5171438/Quote:MediainfoVideoID : 1Format : AVCFormat/Info : Advanced Video CodecFormat profile : [email protected]Format settings : CABAC / 4 Ref FramesFormat settings, CABAC : YesFormat settings, Reference frames : 4 framesCodec ID : V_MPEG4/ISO/AVCDuration : 49 min 46 sBit rate mode : ConstantBit rate : 8 427 kb/sNominal bit rate : 10 000 kb/sWidth : 1 920 pixelsHeight : 800 pixelsDisplay aspect ratio : 2.40:1Frame rate mode : ConstantFrame rate : 24.000 FPSColor space : YUVChroma subsampling : 4:2:0Bit depth : 8 bitsScan type : ProgressiveBits/(Pixel*Frame) : 0.229Stream size : 2.93 GiB (91%)Default : YesForced : NoColor range : LimitedColor primaries : BT.709Transfer characteristics : BT.709Matrix coefficients : BT.709AudioID : 2Format : E-AC-3Format/Info : Enhanced AC-3Commercial name : Dolby Digital PlusCodec ID : A_EAC3Duration : 49 min 46 sBit rate mode : ConstantBit rate : 640 kb/sChannel(s) : 6 channelsChannel layout : L R C LFE Ls RsSampling rate : 48.0 kHzFrame rate : 31.250 FPS (1536 SPF)Compression mode : LossyStream size : 228 MiB (7%)Language : EnglishService kind : Complete MainDefault : YesForced : NoTextID : 3Format : UTF-8Codec ID : S_TEXT/UTF8Codec ID/Info : UTF-8 Plain TextTitle : EnglishLanguage : EnglishDefault : NoForced : No Star.Trek.Discovery.S04E02.1080p.WEB.H264-CAKES…
  • 인기 연관 검색어 구글 검색:    Starcr 바다보아    Stars-043 바다보아    
  • 관련 자료(가나다순):    9-1-1 Lone Star S01 COMPLETE 고화질 AMZN WEBRip x264-GalaxyTV ⭐ - …    Young Rock S01E09 A Lady Named Star Search 초고화질 AMZN WEBRip DDP…
  • 관련 자료(시간순):    WWE NXT 2020 05 27 HDTV x264-Star TJET - 바다보아    Star Trek Discovery S04E03 초고화질 HEVC x265-MeGusta TGx
  • 같은 시각 자료:    CSI.Vegas.S01E08.XviD-AFG[TGx]    Star.Trek.Discovery.S04E02.WEBRip.x264-ION10
  직접 다운로드      무료 다운로드

Star.Trek.Discovery.S04E02.초고화질.WEB.H264-CAKES > 외국티비       즐겨찾기 등록

Star.Trek.Discovery.S04E02.초고화질.WEB.H264-CAKES
Star.Trek.Discovery.S04E02.초고화질.WEB.H264-CAKES

Screens... (click to enlarge):










Star.Trek.Discovery.S04E02.1080p.WEB.H264-CAKES

Infolink -> https://www.imdb.com/title/tt5171438/

Quote:

Mediainfo
Video
ID : 1
Format : AVC
Format/Info : Advanced Video Codec
Format profile : [email protected]
Format settings : CABAC / 4 Ref Frames
Format settings, CABAC : Yes
Format settings, Reference frames : 4 frames
Codec ID : V_MPEG4/ISO/AVC
Duration : 49 min 46 s
Bit rate mode : Constant
Bit rate : 8 427 kb/s
Nominal bit rate : 10 000 kb/s
Width : 1 920 pixels
Height : 800 pixels
Display aspect ratio : 2.40:1
Frame rate mode : Constant
Frame rate : 24.000 FPS
Color space : YUV
Chroma subsampling : 4:2:0
Bit depth : 8 bits
Scan type : Progressive
Bits/(Pixel*Frame) : 0.229
Stream size : 2.93 GiB (91%)
Default : Yes
Forced : No
Color range : Limited
Color primaries : BT.709
Transfer characteristics : BT.709
Matrix coefficients : BT.709

Audio
ID : 2
Format : E-AC-3
Format/Info : Enhanced AC-3
Commercial name : Dolby Digital Plus
Codec ID : A_EAC3
Duration : 49 min 46 s
Bit rate mode : Constant
Bit rate : 640 kb/s
Channel(s) : 6 channels
Channel layout : L R C LFE Ls Rs
Sampling rate : 48.0 kHz
Frame rate : 31.250 FPS (1536 SPF)
Compression mode : Lossy
Stream size : 228 MiB (7%)
Language : English
Service kind : Complete Main
Default : Yes
Forced : No

Text
ID : 3
Format : UTF-8
Codec ID : S_TEXT/UTF8
Codec ID/Info : UTF-8 Plain Text
Title : English
Language : English
Default : No
Forced : No

Star.Trek.Discovery.S04E02.1080p.WEB.H264-CAKES


<< 이 게시판에서 관련된 자료 목록 >>
웹하드 가입에서 다운로드까지 어렵지 않아요~
웹하드 가입에서 다운로드까지 어렵지 않아요~

IMFORMATION STORE
상단으로 가운데로 하단으로